#TITLE:Le petit jardin;
#SUBTITLE:- Winter Garden;
#ARTIST:Miyuki Sawashiro;
#TITLETRANSLIT:;
#SUBTITLETRANSLIT:;
#ARTISTTRANSLIT:;
#CREDIT:Lisek;
#BANNER:bn.jpg;
#BACKGROUND:bg.jpg;
#LYRICSPATH:jardin.lrc;
#CDTITLE:cdtitle.gif;
#MUSIC:Le petit jardin (TV version).mp3;
#OFFSET:-0.740;
#SAMPLESTART:84.021;
#SAMPLELENGTH:11.386;
#SELECTABLE:YES;
#DISPLAYBPM:95.000;
#BPMS:0.000=94.980,132.000=190.000,136.000=95.000,138.000=190.000,142.000=95.000,200.000=25.770,200.125=23.490,200.250=20.470,200.375=18.210,200.500=15.455,200.625=12.035,200.750=6.400,200.875=0.020;
#STOPS:;
#BGCHANGES:0.500=jardin.avi=1.000=0=0=1,
200.000=bg.jpg=1.000=1=0=1,
99999=-nosongbg-=1.000=0=0=0 // don't automatically add -songbackground-
;
// cache tags:
#FIRSTBEAT:0.000;
#LASTBEAT:200.875;
#SONGFILENAME:songs/Otaku's Dream 3rd Anime Mix/[Lisek] Le Petit Jardin - Winter Garden/jardin.sm;
#HASMUSIC:1;
#HASBANNER:1;
#MUSICLENGTH:131.604;
// end cache tags

//---------------dance-single - ----------------
#NOTES:
     dance-single:
     :
     Hard:
     6:
     0.291,0.305,0.038,0.152,0.000,243.000,5.000,20.000,0.000,0.000:
0010
0010
0010
0010
,
0110
0100
0010
0100
,
0010
0100
0010
0100
,
0101
0001
0100
0001
,
0100
0000
0001
0000
0100
0001
0010
0100
,
1010
1000
0010
1000
,
0010
0000
1000
0000
0010
1000
0002
0003
,
1001
0000
1000
0000
0001
0000
1000
1000
,
0002
0003
1000
0000
0001
0000
0002
0000
,
1003
0000
0000
0100
1000
0010
0000
0010
,
0000
0100
0000
0001
1000
0100
0010
0001
,
0100
0001
0000
0100
0001
0000
1000
0000
,
0001
1000
0001
2000
,
3010
0000
0000
0010
0100
0010
0000
1000
,
0000
0001
1000
0100
1000
0100
1000
0010
,
0100
0000
0000
0010
0100
0010
0000
0010
,
0000
0100
0000
0100
0000
0100
0002
0000
,
1003
0000
0000
0001
1000
0001
0000
1000
,
0000
0001
0000
1000
0100
1000
0010
0100
,
0001
0010
0000
0001
1000
0000
0001
0000
,
1000
0001
1000
0002
,
0103
0000
0000
0010
1000
0010
0000
0100
,
0000
0010
1000
0100
0010
0001
0100
0010
,
2000
0001
0001
0001
3001
0001
0001
0001
,
0000
0001
2000
0000
0000
3001
1000
0001
,
1000
0000
1000
0000
0100
1000
0001
1000
,
0001
0000
0010
0000
0001
0010
0100
0010
,
0100
0000
1000
0000
0001
0100
0010
0100
,
0010
1000
0010
0200
,
0310
0000
0000
0000
0000
1000
0100
0010
,
0001
1000
0001
2000
,
3001
0010
0100
0000
0100
0000
0100
1000
,
0100
0010
0001
0010
0100
1000
0100
0010
,
0002
0000
0000
0000
,
1003
0000
2000
0000
,
0000
0000
0000
0000
3001
0000
0000
0001
,
1000
0000
1000
0000
0001
0000
1000
0001
,
1000
0001
1000
0100
,
1000
0000
0000
0100
1000
0000
1000
0000
,
0001
0000
1000
0000
0001
1000
0001
1000
,
0001
0000
1000
1000
0001
0000
0001
0000
,
0001
0000
0000
0020
,
0130
0002
1003
0020
,
0130
0000
0002
0000
1003
0001
1000
0010
,
0100
0001
0000
0001
1000
0001
0000
1000
,
0000
0100
0000
0010
0000
0001
2000
0000
,
3001
0000
0000
1000
0100
1000
0000
1000
,
0100
1000
0010
0100
0001
0010
0001
0100
,
0020
1000
0001
1000
,
0031
1000
0001
1000
,
2002
0000
0000
0000
0000
0000
0000
3003
0000
0000
0000
0000
0000
0000
0000
0000
0000
0000
0000
0000
0000
0000
0000
0000
0000
0000
0000
0000
0000
0000
0000
0000
;

//---------------dance-single - ----------------
#NOTES:
     dance-single:
     :
     Beginner:
     1:
     0.046,0.076,0.015,0.030,0.000,36.000,2.000,4.000,0.000,0.000:
0000
0000
0000
0000
,
1000
0000
0000
0000
,
0000
0000
0000
0000
,
0001
0000
0000
0000
,
0000
0000
0000
0000
,
1000
0000
0000
0000
,
0000
0000
0000
0000
,
0010
0000
0000
0000
,
0100
0000
0000
0000
,
0001
0000
0000
0000
,
0000
0000
0000
0000
,
1000
0000
0000
0000
,
0000
0000
0000
0000
,
0010
0000
0000
0000
,
0000
0000
0000
0000
,
0100
0000
0000
0000
,
0000
0000
0000
0000
,
1001
0000
0000
0000
,
0000
0000
0000
0000
,
0010
0000
0000
0000
,
0000
0000
0000
0000
,
0100
0000
0000
0000
,
0000
0000
0000
0000
,
2000
0000
0000
0000
,
3000
0000
0000
0000
,
0001
0000
0000
0000
,
1000
0000
0000
0000
,
0010
0000
0000
0000
,
0100
0000
0000
0000
,
0001
0000
0000
0000
,
1000
0000
0000
0000
,
0100
0000
0000
0000
,
1000
0000
0000
0000
,
0200
0000
0000
0000
,
0300
0000
2000
0000
,
0000
0000
3000
0000
,
0001
0000
0000
0000
,
1001
0000
0000
0000
,
0010
0000
0000
0000
,
0100
0000
0000
0000
,
0001
0000
0000
0000
,
0010
0000
0000
0000
,
0100
0000
0000
0000
,
0000
0000
0000
0000
,
0100
0000
0000
0000
,
0000
0000
0000
0000
,
1000
0000
0000
0000
,
0001
0000
0000
0000
,
1000
0000
0000
0000
,
0001
0000
0000
0000
,
2000
0000
0000
0000
0000
0000
0000
3000
0000
0000
0000
0000
0000
0000
0000
0000
0000
0000
0000
0000
0000
0000
0000
0000
0000
0000
0000
0000
0000
0000
0000
0000
;

//---------------dance-single - Copied from----------------
#NOTES:
     dance-single:
     Copied from:
     Easy:
     2:
     0.094,0.153,0.046,0.053,0.000,74.000,6.000,7.000,0.000,0.000:
0000
0000
0000
0000
,
1001
0000
0000
0000
,
0000
0000
0000
0000
,
1001
0000
0000
0000
,
0000
0000
0000
0000
,
1001
0000
0000
0000
,
0000
0000
0000
0100
,
0010
0000
0000
0000
,
0200
0300
0000
1000
,
0001
0000
0000
0001
0000
0000
0000
0000
,
0000
0000
0000
0000
,
1000
0000
0000
0001
0000
0000
0000
0000
,
0000
0000
0000
0100
,
0010
0000
0000
1000
,
0100
0000
0000
0010
,
0100
0000
0000
0000
,
0000
0000
0000
1000
,
1001
0000
0000
0000
,
0000
0000
0100
0000
,
0010
0000
0000
0100
0000
0000
0000
0000
,
0000
0000
0000
0001
,
0100
0000
0000
0000
,
1000
0000
0001
0000
,
2000
0000
0000
0000
,
3000
0000
0000
0000
,
0001
0001
0001
0000
,
1000
1000
1000
0000
,
0010
0010
0010
0000
,
0100
0100
0100
2000
,
3001
0000
0000
0001
,
1000
0000
0000
0000
,
0100
0100
0000
0000
,
1000
0000
0100
0000
,
0020
0000
0000
0000
,
0030
0000
0002
0000
,
0000
0000
0003
0000
,
0010
0000
0100
0000
,
1001
0000
0000
0000
,
0010
0000
0100
0000
,
0010
0000
0100
0000
,
0001
0000
0010
0000
,
0001
0000
0000
0000
,
0100
0000
0100
0000
,
0100
0000
0100
0000
,
0010
0000
0000
1000
0000
0000
0000
0000
,
0000
0000
0000
0001
,
1000
0000
0000
0000
,
0001
0000
1000
0000
,
0001
0000
1000
0000
,
0001
0000
1000
0000
,
2002
0000
0000
0000
0000
0000
0000
3003
0000
0000
0000
0000
0000
0000
0000
0000
0000
0000
0000
0000
0000
0000
0000
0000
0000
0000
0000
0000
0000
0000
0000
0000
;

//---------------dance-single - ----------------
#NOTES:
     dance-single:
     :
     Medium:
     4:
     0.205,0.229,0.122,0.129,0.000,156.000,16.000,17.000,0.000,0.000:
0000
0000
0000
0000
,
1001
1000
1000
1000
,
1000
1000
1000
1000
,
1001
0001
0001
0001
,
0001
0001
0001
0100
,
0101
0100
0100
0100
,
0100
0100
0100
0001
,
0101
0000
0000
0000
,
1001
0000
0000
0000
0000
0000
2000
3000
,
1001
1000
0100
1000
,
0100
1000
0100
0010
,
0001
0000
0000
0001
0000
0000
0001
0000
,
0010
0000
0001
0000
0010
0000
0002
0003
,
0011
0001
1000
0001
,
0100
0001
0010
0001
,
0100
0010
1000
0100
,
1000
0000
0010
0000
1000
0000
0200
0300
,
1100
0001
1000
0001
,
0100
0010
1000
0100
,
1000
0000
0000
1000
0000
0000
0001
0000
,
0100
0000
0001
0000
0100
0000
0002
0003
,
1001
1000
0100
1000
,
0010
1000
0100
1000
,
0002
0000
0000
0000
,
0000
0000
2003
0000
0000
3000
0000
0000
,
1001
1000
1000
0000
,
1001
0001
0001
0000
,
0011
0001
0001
0000
,
1100
0100
0100
0000
,
1001
0000
0000
0001
,
1000
0000
0000
0010
,
0100
0001
0000
0000
,
1000
0001
1000
0001
,
2000
0000
0000
0000
,
3001
0000
0002
0000
,
0000
0000
1003
0000
,
0100
0010
1000
0100
,
0010
0000
0000
0000
,
0002
0000
0103
0010
,
1000
0100
1000
0100
,
1000
0010
0100
0001
,
1000
0000
0000
2000
,
3001
0002
1003
2000
,
3001
0002
1003
0001
,
0100
0000
0000
0100
0000
0000
0001
0000
,
0100
0000
0001
0000
0100
0000
0002
0003
,
1001
1000
0100
1000
,
0010
0100
0001
0010
,
0002
0100
0000
0100
,
0000
0100
0000
0103
,
2002
0000
0000
0000
0000
0000
0000
3003
0000
0000
0000
0000
0000
0000
0000
0000
0000
0000
0000
0000
0000
0000
0000
0000
0000
0000
0000
0000
0000
0000
0000
0000
;
